<?xml version="1.0" standalone="no"?>
<!DOCTYPE svg PUBLIC "-//W3C//DTD SVG 1.1//EN" "http://www.w3.org/Graphics/SVG/1.1/DTD/svg11.dtd" >
<svg xmlns="http://www.w3.org/2000/svg">
<metadata>Generated by IcoMoon</metadata>
<defs>
<font id="icomoon" horiz-adv-x="1024">
<font-face units-per-em="1024" ascent="960" descent="-64" />
<missing-glyph horiz-adv-x="1024" />
<glyph unicode="&#x20;" horiz-adv-x="512" d="" />
<glyph unicode="&#xe900;" glyph-name="plus" d="M448 960h128v-1024h-128v1024zM1024 512v-128h-1024v128h1024z" />
<glyph unicode="&#xe901;" glyph-name="logo-02" horiz-adv-x="996" d="M829.791 423.466c-23.145 29.931-58.075 50.489-104.783 61.664 59.481 30.338 85.62 81.834 78.444 154.491-2.399 26.347-9.681 49.182-21.861 68.537-12.191 19.359-28.639 34.923-49.409 46.696-20.754 11.788-43.326 20.762-67.664 26.949-24.344 6.187-52.293 10.679-83.83 13.47v150.889h-92.199v-146.697c-15.966 0-40.315-0.399-73.044-1.198v147.894h-92.215v-150.889c-13.176-0.401-32.533-0.604-58.079-0.604l-126.935 0.604v-98.199h66.458c30.338 0 48.101-13.575 53.29-40.715v-171.849c3.997 0 7.187-0.205 9.584-0.603h-9.584v-240.693c-3.19-20.355-14.764-30.54-34.726-30.54h-66.454l-18.565-109.576h119.754c7.586 0 18.556-0.102 32.933-0.282 14.366-0.199 25.141-0.302 32.328-0.302v-152.681h92.229v150.885c16.76-0.407 41.109-0.603 73.042-0.603v-150.282h92.204v152.681c32.74 1.594 61.778 4.572 87.115 8.978 25.348 4.406 49.603 11.281 72.751 20.668 23.145 9.374 42.502 21.058 58.066 35.029 15.573 13.96 28.437 31.73 38.632 53.29 10.163 21.559 16.658 46.509 19.442 74.857 5.214 55.47-3.775 98.185-26.926 128.13zM417.238 690.505c2.795 0 10.677 0.101 23.652 0.302 12.98 0.206 23.754 0.403 32.333 0.604 8.585 0.197 20.162-0.302 34.736-1.499 14.571-1.197 26.843-2.797 36.82-4.79s20.964-5.288 32.929-9.877c11.986-4.589 21.559-10.179 28.736-16.763 7.19-6.587 13.276-14.973 18.258-25.152 4.995-10.179 7.492-21.853 7.492-35.024 0-11.178-1.793-21.36-5.383-30.546-3.581-9.18-8.984-16.866-16.16-23.054-7.179-6.188-14.577-11.582-22.163-16.168-7.578-4.586-17.267-8.283-29.037-11.073-11.77-2.795-22.049-4.993-30.825-6.587-8.784-1.597-19.758-2.698-32.934-3.293s-23.159-1.002-29.94-1.201c-6.789-0.196-16.068-0.196-27.847 0-11.782 0.199-18.659 0.304-20.66 0.304v183.818l-0.006-0.002zM669.026 282.754c-3.8-9.186-8.682-17.176-14.665-23.964-5.995-6.775-13.882-12.77-23.657-17.95-9.772-5.197-19.262-9.382-28.437-12.576-9.186-3.205-20.267-5.986-33.227-8.388-12.991-2.397-24.36-4.082-34.149-5.087-9.775-1.002-21.446-1.796-35.024-2.399-13.567-0.587-24.15-0.891-31.733-0.891-7.586 0-17.167 0.108-28.744 0.304-11.582 0.185-18.961 0.285-22.157 0.285v202.392c3.191 0 12.673 0.194 28.442 0.601 15.775 0.404 28.639 0.589 38.621 0.589 9.977 0 23.754-0.589 41.325-1.796 17.552-1.187 32.322-2.978 44.309-5.372 11.97-2.399 25.035-6.086 39.216-11.081 14.164-4.987 25.647-11.073 34.434-18.258 8.781-7.198 16.163-16.365 22.146-27.546 6-11.173 8.995-23.951 8.995-38.325-0.003-11.187-1.896-21.349-5.696-30.537z" />
<glyph unicode="&#xe902;" glyph-name="logo-03" horiz-adv-x="996" d="M498.162-50.162c274.673 0 498.162 223.47 498.162 498.162s-223.489 498.162-498.162 498.162c-274.672 0-498.162-223.469-498.162-498.162s223.49-498.162 498.162-498.162zM498.162 863.135c228.903 0 415.135-186.232 415.135-415.135s-186.232-415.135-415.135-415.135c-228.902 0-415.135 186.232-415.135 415.135s186.233 415.135 415.135 415.135zM310.662 281.951h353.554v83.027h-227.635l35.574 83.027h150.547v83.027h-114.954l44.92 104.819-76.318 32.715-58.935-137.534h-126.821v-83.027h91.227l-71.16-166.054z" />
<glyph unicode="&#xe903;" glyph-name="logo-04" horiz-adv-x="996" d="M784.799 698.254l-71.94-292.791-72.211 292.791h-211.683v-108.148c-25.387 94.631-115.070 118.37-198.164 119.689-101.222 1.321-207.391-42.532-211.297-176.399h140.079c0 40.404 30.993 63.524 65.942 62.976 42.863 0.332 62.647-17.97 63.636-46.492-1.481-24.728-16.104-41.962-63.307-41.962h-47.111v-97.18h42.78c24.243 0 58.079-13.187 59.416-47.799 1.63-41.226-27.055-59.362-62.335-59.694-62.977 2.314-73.199 50.732-73.199 92.326h-145.405c0.656-28.030-6.266-210.692 221.573-209.372 109.137-0.991 185.304 44.843 207.721 108.145v-96.94h143.429v315.876l77.486-315.874h125.296l77.813 315.544v-315.874h143.006v501.175h-211.525zM429.36 406.124c-17.804 36.93-42.928 53.107-57.109 58.194 29.679 13.19 45.239 31.094 57.109 66.768v-124.961z" />
<glyph unicode="&#xe904;" horiz-adv-x="996" d="M61.784 358.419c29.099 83.5 194.754 118.69 436.403 89.592l46.811 172.062c-239.118 30.363-413.712-3.794-442.811-112.598l-4.778-17.627-3.897-58.791-31.729-72.638z" />
<glyph unicode="&#xe905;" horiz-adv-x="996" d="M934.502 537.42c-29.098-83.503-194.69-118.518-436.34-89.417l-46.811-172.062c239.118-30.366 413.71 3.794 442.811 112.598l3.061 11.3 2.184 54.906 35.096 82.676z" />
<glyph unicode="&#xe906;" horiz-adv-x="996" d="M214.757 718.748c352.985-25.304 713.557-199.898 679.397-330.212l31.631 116.396c10.121 36.69 15.183 55.67 15.183 70.85 0 132.844-347.925 294.786-679.399 315.029l-46.811-172.063z" />
<glyph unicode="&#xe907;" horiz-adv-x="996" d="M781.561 177.249c-352.984 25.304-713.559 199.899-679.398 330.21l-31.63-116.393c-10.121-36.692-15.182-55.67-15.182-70.85 0-132.843 347.922-294.787 679.399-315.029l46.811 172.062z" />
<glyph unicode="&#xe908;" glyph-name="logo-06" horiz-adv-x="1882" d="M1881.927 434.926c0 133.828-64.822 239.425-188.718 239.425-124.416 0-199.697-105.597-199.697-238.379 0-157.356 88.872-236.812 216.424-236.812 62.209 0 109.258 14.115 144.805 33.98v104.556c-35.549-17.776-76.321-28.755-128.077-28.755-50.707 0-95.667 17.776-101.415 79.462h255.629c0.003 6.794 1.049 33.98 1.049 46.523zM1623.682 484.59c0 59.074 36.072 83.644 69.004 83.644 31.891 0 65.871-24.57 65.871-83.644h-134.875zM1291.726 674.351c-51.23 0-84.167-24.045-102.464-40.777l-6.794 32.411h-115.009v-609.543l130.69 27.706 0.523 147.94c18.819-13.592 46.526-32.931 92.528-32.931 93.574 0 178.785 75.278 178.785 240.994-0.518 151.605-86.774 234.2-178.259 234.2zM1260.359 314.169c-30.845 0-49.138 10.979-61.686 24.57l-0.523 193.946c13.594 15.161 32.411 25.617 62.209 25.617 47.572 0 80.506-53.323 80.506-121.806 0.003-70.050-32.411-122.326-80.506-122.326zM887.675 705.193l131.213 28.228v106.12l-131.213-27.706v-106.642zM1018.888 665.459h-131.213v-457.415h131.213v457.415zM747.011 626.779l-8.364 38.685h-112.917v-457.418h130.69v309.998c30.842 40.254 83.118 32.934 99.325 27.186v120.234c-16.727 6.269-77.893 17.771-108.735-38.685zM485.644 778.905l-127.554-27.184-0.523-418.73c0-77.37 58.028-134.352 135.395-134.352 42.87 0 74.232 7.843 91.485 17.253v106.12c-16.727-6.797-99.322-30.842-99.322 46.523v185.582h99.322v111.348h-99.322l0.52 113.441zM132.26 532.685c0 20.389 16.727 28.229 44.434 28.229 39.729 0 89.914-12.022 129.648-33.46v122.852c-43.391 17.247-86.258 24.045-129.648 24.045-106.12 0-176.694-55.412-176.694-147.94 0-144.282 198.652-121.28 198.652-183.49 0-24.047-20.91-31.888-50.186-31.888-43.39 0-98.802 17.773-142.714 41.821v-124.419c48.616-20.909 97.758-29.796 142.714-29.796 108.733 0 183.49 53.846 183.49 147.417-0.523 155.784-199.695 128.077-199.695 186.628z" />
<glyph unicode="&#xe909;" glyph-name="logo-01" horiz-adv-x="996" d="M192.216 438.682l305.863 35.743 81.66 202.777-81.66 268.961-305.863-507.481zM498.079 577.785l-305.863-139.106 305.863-180.703 81.66 168.478-81.66 151.331zM498.054 650.553v-392.571l305.739 180.703-305.739 211.868zM498.054 577.788l305.739-139.106-305.739 507.481v-368.374zM498.079 200.031l-305.863 180.697 305.863-430.891 59.124 143.144-59.124 107.050zM498.054 200.031v-250.194l305.98 430.891-305.98-180.697z" />
<glyph unicode="&#xe90a;" glyph-name="arrow-top" horiz-adv-x="1536" d="M722.801 69.642l-618.667 628.273c-25.067 25.068-25.067 65.601 0 90.668l37.867 37.865c25.067 25.068 65.601 25.068 90.666 0l535.467-545.6 535.467 545.068c25.068 25.066 65.601 25.066 90.667 0l37.868-37.867c25.066-25.066 25.066-65.599 0-90.667l-618.667-628.27c-25.068-24.525-65.601-24.525-90.667 0.529z" />
<glyph unicode="&#xe90b;" glyph-name="arrow-left" horiz-adv-x="683" d="M76.541 450.36l439.792-433.068c17.547-17.545 45.921-17.545 63.468 0l26.506 26.508c17.547 17.545 17.547 45.923 0 63.468l-381.921 374.826 381.548 374.826c17.546 17.547 17.546 45.921 0 63.467l-26.507 26.507c-17.546 17.546-45.92 17.546-63.467 0l-439.789-433.067c-17.167-17.547-17.168-45.921 0.37-63.467z" />
<glyph unicode="&#xe90c;" glyph-name="arrow-right" horiz-adv-x="683" d="M606.126 450.36l-439.792-433.068c-17.547-17.545-45.921-17.545-63.468 0l-26.506 26.508c-17.547 17.545-17.547 45.923 0 63.468l381.921 374.826-381.548 374.826c-17.546 17.547-17.546 45.921 0 63.467l26.507 26.507c17.546 17.546 45.92 17.546 63.467 0l439.789-433.067c17.168-17.547 17.168-45.921-0.37-63.467z" />
<glyph unicode="&#xe90d;" horiz-adv-x="1138" d="M802.222 48c0-18.665-14.663-33.334-33.334-33.334h-399.997c-18.671 0-33.334 14.669-33.334 33.334 0 18.668 14.663 33.334 33.334 33.334h399.997c18.671 0 33.334-14.666 33.334-33.334z" />
<glyph unicode="&#xe90e;" horiz-adv-x="1138" d="M802.222 48c0-18.665-14.663-33.334-33.334-33.334h-266.667v66.668h266.667c18.671 0 33.334-14.666 33.334-33.334z" />
<glyph unicode="&#xe90f;" horiz-adv-x="1138" d="M802.222 848c0-18.664-14.663-33.333-33.334-33.333h-399.997c-18.671 0-33.334 14.669-33.334 33.333 0 18.669 14.663 33.333 33.334 33.333h399.997c18.671 0 33.334-14.665 33.334-33.333z" />
<glyph unicode="&#xe910;" horiz-adv-x="1138" d="M1005.744 474.303c-12.24 0-23.993 6.738-29.852 18.423l-140.365 280.729c-8.235 16.471-1.562 36.491 14.911 44.727 16.438 8.202 36.491 1.595 44.726-14.909l140.365-280.729c8.235-16.472 1.562-36.491-14.911-44.726-4.784-2.375-9.862-3.516-14.874-3.516z" />
<glyph unicode="&#xe911;" horiz-adv-x="1138" d="M865.3 74.3c-5.012 0-10.092 1.141-14.876 3.516-11.685 5.828-18.423 17.613-18.423 29.818 0 5.015 1.141 10.123 3.516 14.911l140.365 280.727c8.269 16.472 28.223 23.080 44.726 14.911 11.688-5.828 18.423-17.613 18.423-29.818 0-5.015-1.138-10.126-3.516-14.911l-140.362-280.727c-5.862-11.688-17.613-18.426-29.852-18.426z" />
<glyph unicode="&#xe912;" horiz-adv-x="1138" d="M131.979 474.303c-5.013 0-10.091 1.141-14.875 3.516-16.471 8.235-23.145 28.254-14.909 44.726l140.365 280.729c8.269 16.504 28.222 23.111 44.727 14.909 16.472-8.236 23.145-28.256 14.908-44.727l-140.363-280.729c-5.86-11.685-17.611-18.423-29.851-18.423z" />
<glyph unicode="&#xe913;" horiz-adv-x="1138" d="M272.41 74.3c-12.24 0-23.991 6.738-29.851 18.426l-140.365 280.727c-8.236 16.472-1.562 36.491 14.909 44.729 16.438 8.169 36.491 1.562 44.727-14.911l140.363-280.727c8.238-16.472 1.564-36.491-14.908-44.729-4.785-2.375-9.863-3.516-14.876-3.516z" />
<glyph unicode="&#xe914;" horiz-adv-x="1138" d="M975.952 444.481c-3.612 0-7.259 0.586-10.84 1.82l-214.062 73.7c-17.417 5.988-26.661 24.966-20.671 42.351 5.988 17.414 25 26.627 42.351 20.671l214.062-73.697c17.417-5.99 26.661-24.969 20.671-42.351-4.753-13.838-17.675-22.494-31.511-22.494z" />
<glyph unicode="&#xe915;" horiz-adv-x="1138" d="M718.413 612.679c-6.835 0-13.77 2.116-19.726 6.48-14.811 10.903-18.002 31.77-7.097 46.615l100.978 137.304c10.903 14.811 31.704 17.969 46.615 7.096 14.811-10.904 18.002-31.771 7.094-46.616l-100.975-137.305c-6.545-8.883-16.634-13.574-26.889-13.574z" />
<glyph unicode="&#xe916;" horiz-adv-x="1138" d="M674.21 600.004c-6.002-10.004-16.666-15.337-27.335-15.337-6.665 0-12.666 2.002-18.665 6.002l-289.334 192.668c-15.332 9.998-19.331 30.664-8.667 46 9.998 15.331 30.666 19.331 46 9.331l289.331-192.663c15.334-10.004 19.334-30.672 8.67-46z" />
<glyph unicode="&#xe917;" horiz-adv-x="1138" d="M542.197 334.655c-6.966 0-13.963 2.179-19.954 6.673-14.746 11.034-17.741 31.932-6.673 46.646l119.987 160.026c11.065 14.748 31.966 17.675 46.646 6.673 14.746-11.034 17.741-31.932 6.673-46.646l-119.987-160.026c-6.542-8.755-16.535-13.346-26.692-13.346z" />
<glyph unicode="&#xe918;" horiz-adv-x="1138" d="M439.054 302.424c-3.482 0-7.029 0.555-10.544 1.727l-273.503 91.145c-17.449 5.794-26.889 24.676-21.062 42.158 5.793 17.414 24.544 26.985 42.156 21.060l273.502-91.145c17.451-5.794 26.889-24.676 21.063-42.158-4.656-13.963-17.644-22.787-31.61-22.787z" />
<glyph unicode="&#xe919;" horiz-adv-x="1138" d="M783.423 56.297c-7.29 0-14.649 2.375-20.799 7.29l-229.231 183.398c-14.356 11.526-16.7 32.486-5.211 46.876 11.557 14.322 32.489 16.731 46.876 5.208l229.231-183.398c14.356-11.523 16.7-32.486 5.208-46.874-6.61-8.203-16.276-12.501-26.075-12.501z" />
<glyph unicode="&#xe91a;" horiz-adv-x="1138" d="M342.195 67.988c-6.966 0-13.963 2.179-19.951 6.673-14.748 11.034-17.741 31.932-6.676 46.646l119.987 160.026c11.102 14.748 31.935 17.675 46.649 6.673 14.746-11.034 17.738-31.932 6.673-46.646l-119.987-160.026c-6.542-8.755-16.535-13.346-26.695-13.346z" />
<glyph unicode="&#xe91b;" horiz-adv-x="1138" d="M478.754 343.768c-13.477 0-26.206 8.235-31.218 21.615l-153.19 408.465c-6.446 17.253 2.276 36.458 19.496 42.935 17.186 6.445 36.457-2.247 42.937-19.498l153.19-408.464c6.446-17.254-2.278-36.457-19.499-42.937-3.871-1.434-7.811-2.116-11.716-2.116z" />
<glyph unicode="&#xe91c;" horiz-adv-x="1138" d="M566.858 297.509c-14.942 0-28.516 10.089-32.29 25.259-4.491 17.838 6.38 35.937 24.252 40.397l403.971 100.978c17.806 4.523 35.937-6.349 40.397-24.252 4.491-17.838-6.38-35.94-24.249-40.397l-403.974-100.978c-2.702-0.683-5.436-1.007-8.107-1.007z" />
<glyph unicode="&#xe91d;" horiz-adv-x="1138" d="M768.887 814.667h-266.667v66.667h266.667c18.671 0 33.334-14.665 33.334-33.333 0-18.664-14.663-33.333-33.334-33.333z" />
<glyph unicode="&#xe91e;" horiz-adv-x="1138" d="M674.222 600.001c-6.002-10.004-16.666-15.337-27.335-15.337-6.665 0-12.666 2.002-18.665 6.002l-126 84.002v79.999l163.334-108.668c15.332-10.001 19.331-30.669 8.667-45.998z" />
<glyph unicode="&#xe91f;" horiz-adv-x="1138" d="M502.221 414.666c-55.333 0-99.999-44.663-99.999-99.999 0-55.33 44.666-99.999 99.999-99.999 55.336 0 100.002 44.669 100.002 99.999 0 55.336-44.666 99.999-100.002 99.999z" />
<glyph unicode="&#xe920;" horiz-adv-x="1138" d="M602.223 314.667c0-55.33-44.666-99.999-100.002-99.999v199.999c55.336 0 100.002-44.663 100.002-99.999z" />
<glyph unicode="&#xe921;" horiz-adv-x="1138" d="M1035.554 348.001c-55.14 0-99.999 44.857-99.999 99.999s44.86 99.999 99.999 99.999c55.142 0 102.224-44.857 102.224-99.999s-47.081-99.999-102.224-99.999z" />
<glyph unicode="&#xe922;" horiz-adv-x="1138" d="M835.556 748c-55.142 0-99.999 44.858-99.999 100s44.857 100 99.999 100c55.142 0 99.999-44.858 99.999-100s-44.857-100-99.999-100z" />
<glyph unicode="&#xe923;" horiz-adv-x="1138" d="M702.222 481.334c-55.142 0-99.999 44.857-99.999 99.999s44.857 100 99.999 100c55.142 0 99.999-44.857 99.999-100s-44.857-99.999-99.999-99.999z" />
<glyph unicode="&#xe924;" horiz-adv-x="1138" d="M835.556-51.999c-55.142 0-99.999 44.857-99.999 99.999s44.857 99.999 99.999 99.999c55.142 0 99.999-44.857 99.999-99.999s-44.857-99.999-99.999-99.999z" />
<glyph unicode="&#xe925;" horiz-adv-x="1138" d="M102.222 348.001c-55.142 0-102.222 44.857-102.222 99.999s47.080 99.999 102.222 99.999c55.142 0 100-44.857 100-99.999s-44.858-99.999-100-99.999z" />
<glyph unicode="&#xe926;" horiz-adv-x="1138" d="M302.222 748c-55.142 0-100 44.858-100 100s44.858 100 100 100c55.142 0 99.999-44.858 99.999-100s-44.857-100-99.999-100z" />
<glyph unicode="&#xe927;" horiz-adv-x="1138" d="M302.222-51.999c-55.142 0-100 44.857-100 99.999s44.858 99.999 100 99.999c55.142 0 99.999-44.857 99.999-99.999s-44.857-99.999-99.999-99.999z" />
<glyph unicode="&#xe928;" glyph-name="collection" d="M543.989 721.777h-231.115v24.887c0 109.967 89.146 199.112 199.113 199.112h298.667c109.963 0 199.11-89.145 199.11-199.112v-298.667c0-109.963-89.148-199.11-199.11-199.11h-24.89v231.113c0 133.527-108.247 241.777-241.775 241.777zM213.319-49.779h298.668c109.963 0 199.11 89.146 199.11 199.11v298.667c0 109.967-89.148 199.113-199.11 199.113h-298.668c-109.966 0-199.111-89.146-199.111-199.113v-298.667c0-109.965 89.145-199.11 199.111-199.11zM536.572 426.315c15.516-13.574 17.088-37.165 3.509-52.681l-142.857-163.266c-30.697-35.083-83.573-39.776-119.977-10.656l-87.25 69.798c-16.101 12.883-18.711 36.378-5.831 52.476 12.88 16.102 36.373 18.711 52.475 5.828l87.251-69.798c5.199-4.162 12.753-3.488 17.139 1.523l142.859 163.266c13.574 15.516 37.161 17.090 52.681 3.509z" />
<glyph unicode="&#xe929;" glyph-name="community" horiz-adv-x="896" d="M896 540.073c0 60.277-26.861 117.365-73.169 155.494l-248.887 204.944c-73.293 60.354-178.594 60.354-251.889 0l-248.888-204.944c-46.304-38.129-73.166-95.217-73.166-155.494v-389.088c0-110.88 89.145-200.764 199.111-200.764h497.779c109.963 0 199.11 89.884 199.11 200.764v389.088zM609.777 186.665v-112c0-27.492-22.285-49.777-49.777-49.777h-224c-27.492 0-49.777 22.285-49.777 49.777v112c0 89.346 72.431 161.779 161.777 161.779s161.777-72.433 161.777-161.779z" />
<glyph unicode="&#xe92b;" glyph-name="facebook" horiz-adv-x="576" d="M165.1 381.47c-3.84 0-88.32 0-126.72 0-20.48 0-26.88 7.68-26.88 26.88 0 51.2 0 103.68 0 154.88 0 20.48 7.68 26.88 26.88 26.88h126.72c0 3.84 0 78.080 0 112.64 0 51.2 8.96 99.84 34.56 144.64 26.88 46.080 65.28 76.8 113.92 94.72 32 11.52 64 16.64 98.56 16.64h125.44c17.92 0 25.6-7.68 25.6-25.6v-145.92c0-17.92-7.68-25.6-25.6-25.6-34.56 0-69.12 0-103.68-1.28-34.56 0-52.48-16.64-52.48-52.48-1.28-38.4 0-75.52 0-115.2h148.48c20.48 0 28.16-7.68 28.16-28.16v-154.88c0-20.48-6.4-26.88-28.16-26.88-46.080 0-144.64 0-148.48 0v-417.278c0-21.76-6.4-29.44-29.44-29.44-53.76 0-106.24 0-160 0-19.2 0-26.88 7.68-26.88 26.88 0 134.4 0 414.718 0 418.558z" />
<glyph unicode="&#xe92c;" glyph-name="image" horiz-adv-x="995" d="M259.028 219.502c-66.355 0-125.378 42.487-146.811 105.735l-1.449 4.766c-5.055 16.753-7.172 30.837-7.172 44.93v282.604l-100.553-335.653c-12.932-49.369 16.537-100.554 65.983-114.191l640.922-171.646c8.002-2.071 16.001-3.066 23.877-3.066 41.279 0 79 27.399 89.571 67.774l37.341 118.746h-601.708zM259.028 219.502c-66.355 0-125.378 42.487-146.811 105.735l-1.449 4.766c-5.055 16.753-7.172 30.837-7.172 44.93v282.604l-100.553-335.653c-12.932-49.369 16.537-100.554 65.983-114.191l640.922-171.646c8.002-2.071 16.001-3.066 23.877-3.066 41.279 0 79 27.399 89.571 67.774l37.341 118.746h-601.708zM373.072 654.713c45.717 0 82.891 37.182 82.891 82.901s-37.174 82.9-82.891 82.9c-45.72 0-82.901-37.181-82.901-82.9s37.181-82.901 82.901-82.901zM373.072 654.713c45.717 0 82.891 37.182 82.891 82.901s-37.174 82.9-82.891 82.9c-45.72 0-82.901-37.181-82.901-82.9s37.181-82.901 82.901-82.901zM891.061 944.857h-621.728c-57.111 0-103.619-46.508-103.619-103.627v-455.929c0-57.119 46.508-103.629 103.619-103.629h621.728c57.119 0 103.629 46.51 103.629 103.629v455.929c0 57.118-46.51 103.627-103.629 103.627zM269.333 861.957h621.728c11.445 0 20.729-9.282 20.729-20.727v-294.245l-130.934 152.785c-13.888 16.287-33.994 24.992-55.586 25.486-21.469-0.122-41.612-9.654-55.372-26.154l-153.945-184.773-50.15 50.030c-28.347 28.347-74.483 28.347-102.792 0l-114.397-114.357v391.229c0 11.445 9.282 20.727 20.719 20.727zM891.061 944.857h-621.728c-57.111 0-103.619-46.508-103.619-103.627v-455.929c0-57.119 46.508-103.629 103.619-103.629h621.728c57.119 0 103.629 46.51 103.629 103.629v455.929c0 57.118-46.51 103.627-103.629 103.627zM269.333 861.957h621.728c11.445 0 20.729-9.282 20.729-20.727v-294.245l-130.934 152.785c-13.888 16.287-33.994 24.992-55.586 25.486-21.469-0.122-41.612-9.654-55.372-26.154l-153.945-184.773-50.15 50.030c-28.347 28.347-74.483 28.347-102.792 0l-114.397-114.357v391.229c0 11.445 9.282 20.727 20.719 20.727z" />
<glyph unicode="&#xe92d;" glyph-name="linkedin" d="M1024.044-64v375.041c0 184.32-39.68 325.12-254.72 325.12-103.679 0-172.798-56.32-200.958-110.080h-2.56v93.44h-203.521v-683.521h212.481v339.201c0 89.6 16.64 175.36 126.72 175.36 108.798 0 110.078-101.12 110.078-180.48v-332.801h212.48v-1.28zM16.571 619.535h212.48v-683.521h-212.48v683.521zM122.88 960c-67.84 0-122.88-55.040-122.88-122.88s55.040-124.16 122.88-124.16c67.84 0 122.88 56.32 122.88 124.16s-55.040 122.88-122.88 122.88z" />
<glyph unicode="&#xe92e;" horiz-adv-x="973" d="M75.585 779.858v-58.684h-46.534c-16.394 0-25.97-18.487-16.512-31.879l102.128-144.589c8.054-11.405 24.97-11.405 33.024 0l102.128 144.589c9.458 13.391-0.118 31.879-16.512 31.879h-46.534v58.684c0 38.022 30.934 68.956 68.958 68.956s68.954-30.934 68.954-68.956v-334.584h111.186v334.584c0 99.33-80.812 180.142-180.142 180.142s-180.144-80.812-180.144-180.142z" />
<glyph unicode="&#xe92f;" horiz-adv-x="973" d="M435.853 779.862v-334.581h-61.233v334.581c0 88.884-64.717 162.954-149.52 177.52 9.952 1.732 20.17 2.618 30.618 2.618 99.331 0 180.135-80.808 180.135-180.138z" />
<glyph unicode="&#xe930;" horiz-adv-x="973" d="M773.194-63.997h-573.52c-20.396 0-37.592 15.206-40.084 35.451l-50.89 413.391h755.466l-50.888-413.391c-2.493-20.244-19.689-35.451-40.084-35.451z" />
<glyph unicode="&#xe931;" horiz-adv-x="973" d="M108.7 384.837l9.026-73.3h288.121c14.904 0 28.89-7.992 35.766-21.212 8.412-16.182 25.326-27.231 44.82-27.231 19.5 0 36.411 11.049 44.823 27.231 6.876 13.22 20.859 21.212 35.763 21.212h148.869c33.272 0 59.036-29.13 54.971-62.154l-34.212-277.921c-2.504-20.255-19.686-35.459-40.084-35.459h76.634c20.398 0 37.581 15.204 40.084 35.459l50.888 413.376h-755.469z" />
<glyph unicode="&#xe932;" horiz-adv-x="973" d="M419.090 30.139c-19.889-1.39-37.138 13.604-38.531 33.492l-10.67 152.594c-1.39 19.886 13.604 37.138 33.495 38.528 19.886 1.39 37.138-13.604 38.528-33.492l10.67-152.591c1.39-19.889-13.604-37.138-33.492-38.531z" />
<glyph unicode="&#xe933;" horiz-adv-x="973" d="M275.415 30.961c-19.743-2.775-37.997 10.98-40.771 30.723l-21.288 151.478c-2.774 19.743 10.98 37.998 30.724 40.771 19.744 2.775 37.999-10.98 40.772-30.723l21.289-151.478c2.772-19.74-10.982-37.998-30.725-40.771z" />
<glyph unicode="&#xe934;" horiz-adv-x="973" d="M555.584 30.139c19.886-1.39 37.138 13.604 38.528 33.492l10.67 152.594c1.39 19.886-13.604 37.138-33.492 38.528s-37.138-13.604-38.531-33.492l-10.67-152.591c-1.388-19.889 13.606-37.138 33.495-38.531z" />
<glyph unicode="&#xe935;" horiz-adv-x="973" d="M699.279 30.961c19.745-2.775 37.998 10.98 40.773 30.723l21.286 151.478c2.775 19.743-10.98 37.998-30.723 40.771-19.743 2.775-37.998-10.98-40.773-30.723l-21.286-151.478c-2.778-19.74 10.98-37.998 30.723-40.771z" />
<glyph unicode="&#xe936;" horiz-adv-x="973" d="M877.581 362.010h-782.279c-28.774 0-52.102 23.324-52.102 52.101 0 28.774 23.326 52.101 52.102 52.101h782.279c28.774 0 52.104-23.324 52.104-52.101s-23.329-52.101-52.104-52.101z" />
<glyph unicode="&#xe937;" horiz-adv-x="973" d="M929.664 414.113c0-14.397-5.837-27.4-15.265-36.831-9.411-9.431-22.454-15.265-36.833-15.265h-71.764c14.377 0 27.42 5.834 36.831 15.265 9.431 9.431 15.265 22.433 15.265 36.831 0 28.777-23.324 52.099-52.096 52.099h71.764c28.774 0 52.099-23.324 52.099-52.099z" />
<glyph unicode="&#xe938;" horiz-adv-x="973" d="M897.088 676.838v-202.908h46.533c16.394 0 25.971-18.488 16.512-31.88l-102.126-144.589c-8.054-11.405-24.97-11.405-33.024 0l-102.129 144.589c-9.459 13.391 0.118 31.88 16.512 31.88h46.533v202.908c0 38.023-30.932 68.957-68.959 68.957-38.024 0-68.954-30.934-68.954-68.957v-210.624h-111.186v210.624c0 99.333 80.812 180.143 180.14 180.143 99.331 0 180.147-80.812 180.147-180.143z" />
<glyph unicode="&#xe939;" horiz-adv-x="973" d="M960.084 442.048l-102.131-144.576c-8.056-11.415-24.952-11.415-33.009 0l-11.395 16.133 90.719 128.44c9.454 13.391-0.102 31.895-16.504 31.895h-25.94c-11.379 0-20.603 9.224-20.603 20.603v182.3c0 89.832-66.097 164.52-152.22 177.974 11.223 1.752 22.761 2.472 34.532 2.042 97.242-3.544 173.501-85.044 173.501-182.351v-200.566h46.543c16.381 0 25.964-18.504 16.507-31.895z" />
<glyph unicode="&#xe93a;" glyph-name="plan" horiz-adv-x="1243" d="M495.796 292.857l-19.359-272.304c27.698 0 39.694 11.9 54.080 26.192l129.86 124.101 269.079-197.054c49.349-27.502 84.122-13.019 97.434 45.4l176.625 827.63 0.051 0.048c15.653 72.952-26.383 101.479-74.467 83.583l-1038.195-397.48c-70.855-27.503-69.782-67.003-12.045-84.899l265.425-82.559 616.528 385.777c29.016 19.213 55.398 8.583 33.697-10.631l-498.713-447.805z" />
<glyph unicode="&#xe93b;" glyph-name="quality" horiz-adv-x="1170" d="M957.225 918.888l166.234-189.373c38.578-43.947 40.875-109.454 5.469-156.061l-447.922-589.651c-48.423-63.739-143.336-63.739-191.761 0l-447.922 589.651c-35.404 46.607-33.109 112.113 5.469 156.061l166.234 189.373c22.955 26.15 55.858 41.112 90.411 41.112h563.38c34.548 0 67.452-14.962 90.407-41.112z" />
<glyph unicode="&#xe93c;" glyph-name="resource" horiz-adv-x="1170" d="M243.794 846.222c0 62.838 50.94 113.778 113.777 113.778h455.112c62.839 0 113.779-50.94 113.779-113.778v-56.889h-682.668v56.889zM130.016 590.221c0 62.839 50.94 113.779 113.778 113.779h682.668c62.839 0 113.776-50.939 113.776-113.779v-56.888h-910.222v56.888zM16.238 334.221c0 62.839 50.94 113.779 113.778 113.779h910.222c62.839 0 113.779-50.939 113.779-113.779v-170.667c0-125.672-101.883-227.555-227.555-227.555h-682.668c-125.676 0-227.556 101.883-227.556 227.555v170.667zM428.683 277.333c0 23.564 19.102 42.667 42.667 42.667h227.555c23.564 0 42.667-19.102 42.667-42.667s-19.102-42.667-42.667-42.667h-227.555c-23.564 0-42.667 19.102-42.667 42.667z" />
<glyph unicode="&#xe93e;" glyph-name="trading" horiz-adv-x="995" d="M461.417 816.35c0 32.317-26.331 58.903-58.394 54.855-227.265-28.7-403.023-222.702-403.023-457.757 0-254.833 206.583-461.417 461.417-461.417 235.055 0 429.056 175.759 457.757 403.023 4.049 32.063-22.54 58.394-54.854 58.394h-344.389c-32.317 0-58.514 26.197-58.514 58.514v344.388zM461.417 816.35c0 32.317-26.331 58.903-58.394 54.855-227.265-28.7-403.023-222.702-403.023-457.757 0-254.833 206.583-461.417 461.417-461.417 235.055 0 429.056 175.759 457.757 403.023 4.049 32.063-22.54 58.394-54.854 58.394h-344.389c-32.317 0-58.514 26.197-58.514 58.514v344.388zM591.65 943.112c-32.060 4.049-58.391-22.538-58.391-54.855v-344.387c0-32.317 26.197-58.514 58.514-58.514h344.386c32.317 0 58.906 26.331 54.857 58.391-26.288 208.142-191.225 373.079-399.366 399.365zM591.65 943.112c-32.060 4.049-58.391-22.538-58.391-54.855v-344.387c0-32.317 26.197-58.514 58.514-58.514h344.386c32.317 0 58.906 26.331 54.857 58.391-26.288 208.142-191.225 373.079-399.366 399.365z" />
<glyph unicode="&#xe93f;" glyph-name="twiter" horiz-adv-x="1280" d="M1237.333 838.774c-44.425-20.559-91.767-34.185-141.124-40.802 50.773 31.98 89.532 82.235 107.75 142.809-47.343-29.775-99.61-50.806-155.307-62.543-44.954 50.491-109.013 81.762-178.901 81.762-135.597 0-244.76-116.106-244.76-258.442 0-20.48 1.644-40.172 5.675-58.919-203.616 10.476-383.786 113.428-504.821 270.257-21.131-38.676-33.525-82.944-33.525-130.599 0-89.482 43.68-168.803 108.789-214.725-39.35 0.788-77.952 12.839-110.656 31.823 0-0.788 0-1.812 0-2.836 0-125.558 84.896-229.849 196.224-253.873-19.936-5.751-41.664-8.508-64.213-8.508-15.68 0-31.509 0.945-46.368 4.412 31.734-102.321 121.782-177.546 228.854-179.988-83.328-68.763-189.131-110.201-303.669-110.201-20.086 0-39.35 0.947-58.614 3.55 108.49-73.813 237.067-115.951 375.723-115.951 450.688 0 697.088 393.846 697.088 735.232 0 11.422-0.375 22.449-0.896 33.398 48.606 36.392 89.446 81.841 122.752 134.144z" />
<glyph unicode="&#xe940;" glyph-name="users" horiz-adv-x="1156" d="M578.065 557.872c105.396 0 190.837 85.441 190.837 190.838s-85.441 190.839-190.837 190.839c-105.396 0-190.837-85.442-190.837-190.839s85.441-190.838 190.837-190.838zM964.129 557.872c66.629 0 120.644 54.014 120.644 120.644s-54.014 120.645-120.644 120.645c-66.629 0-120.644-54.015-120.644-120.645s54.014-120.644 120.644-120.644zM192 557.872c66.63 0 120.645 54.014 120.645 120.644s-54.015 120.645-120.645 120.645c-66.63 0-120.645-54.015-120.645-120.645s54.015-120.644 120.645-120.644zM310.868 449.533c-47.49 38.909-90.499 33.759-145.41 33.759-82.126 0-148.942-66.421-148.942-148.044v-239.557c0-35.447 28.933-64.271 64.512-64.271 153.605 0 135.101-2.781 135.101 6.623 0 169.749-20.106 294.238 94.739 411.489zM630.275 482.413c-95.912 7.997-179.276-0.092-251.184-59.448-120.331-96.382-97.174-226.159-97.174-384.922 0-42.004 34.176-76.82 76.819-76.82 463.016 0 481.445-14.934 508.902 45.869 9.005 20.563 6.537 14.029 6.537 210.733 0 156.239-135.284 264.588-243.9 264.588zM990.7 483.295c-55.21 0-97.984 5.1-145.411-33.759 113.988-116.379 94.74-232.372 94.74-411.486 0-9.464-15.36-6.626 132.8-6.626 36.851 0 66.814 29.855 66.814 66.553v237.277c0 81.619-66.814 148.041-148.942 148.041z" />
<glyph unicode="&#xe941;" horiz-adv-x="973" d="M246.4 268.001l-217.852 48.924-22.148 71.073 240 120.003 240-120.003-25.006-72.502-214.994-47.496z" />
<glyph unicode="&#xe942;" horiz-adv-x="973" d="M246.4-64l-240 120v331.999l240-119.997 60.001-88.31v-157.471l-60.001-86.221z" />
<glyph unicode="&#xe943;" horiz-adv-x="973" d="M486.4 56l-240-120v332.001l240 119.997v-331.999z" />
<glyph unicode="&#xe944;" horiz-adv-x="973" d="M726.4 268.001l-217.851 48.924-22.149 71.073 240 120.003 240-120.003-25.006-72.502-214.994-47.496z" />
<glyph unicode="&#xe945;" horiz-adv-x="973" d="M726.4-64l-240 120v331.999l240-119.997 60.001-88.31v-157.471l-60.001-86.221z" />
<glyph unicode="&#xe946;" horiz-adv-x="973" d="M966.4 56l-240-120v332.001l240 119.997v-331.999z" />
<glyph unicode="&#xe947;" horiz-adv-x="973" d="M486.4 720l-217.851 48.926-22.149 71.074 240 120 240-120-25.006-72.502-214.994-47.498z" />
<glyph unicode="&#xe948;" horiz-adv-x="973" d="M486.4 387.999l-240 120.003v331.999l240-120 60.001-86.308v-159.47l-60.001-86.223z" />
<glyph unicode="&#xe949;" horiz-adv-x="973" d="M726.4 508.001l-240-120.003v332.001l240 120v-331.999z" />
<glyph unicode="&#xe94a;" glyph-name="youtobe" horiz-adv-x="1536" d="M1470.694 792.414c-7.586 63.295-67.234 123.99-129.647 132.121-380.578 47.287-765.414 47.287-1145.864 0-62.462-8.114-122.112-68.826-129.7-132.121-26.867-231.975-26.867-456.899 0-688.819 7.588-63.3 67.238-124.049 129.7-132.122 380.449-47.283 765.303-47.283 1145.864 0 62.413 8.064 122.061 68.821 129.647 132.122 26.871 231.9 26.871 456.844 0 688.819zM647.621 207.040v481.853l361.386-240.935-361.386-240.918z" />
</font>
</defs>
</svg>
